Skip to main content

Kung Fu Live at Tammany Hall on 2013-03-01

by Kung Fu



01 crowd
02 Do The Right Thing *
03 Steppin In It
04 Ventriliquist
05 Gung Ho
06 God Made Me Funky %
07 Scrabb
08 Snaggle
09 Standing On The Verge Of Getting It On ^
10 Chakrabarti Overdrive
11 S'all Good
12 Green Earrings & >
13 Paragon
14 encore break

Encore:
15 Loose

* - Herbie Hancock
% - Head Hunters
^ - Parliament Funkadelic
& - Steely Dan


Collection KungFuband
Band/Artist Kung Fu
Venue Tammany Hall
Location Worcester, MA

Source Schoeps MK22/MK4>KC5>CMC6>Sonosax SX-R4(24bit/48khz) & SB>SX-R4
Lineage WAV>USB>Macbook Pro>Audacity(mixing)>Wave Editor(tracking,fades,resample(izotope)/dither(mbit+)to 16 bit/44.1k)>XAct(FLAC 8,ffp,fix sbe)
Taped by Andy Murray
Transferred by Andy Murray


Notes

Kung Fu
2013-03-01
Tammany Hall
Worcester, MA

mk22s were 21cm,110 degrees DFC on stage
mk4s were hung from the lighting rig dfc ORTF

Source:
Schoeps mk22> SchoepsNbox actives/Naiant PFAs>Sonosax SX-R4
Schoeps mk4>KC5>CMC6>Sonosax SX-R4(24bit/96khz) & Soundboard>SX-R4

Lineage: WAV>USB>Macbook Pro>Audacity(mixing)>Wave Editor(tracking,fades,resample(izotope)/dither(mbit+)to 16 bit/44.1k)>XAct(FLAC 8,ffp,fix sbe)

Taped by: Andy Murray
Transferred by: Andy Murray

Otis Grove opened

The soundboard source drops out twice for a short time during Ventriliquist due to in house technical difficulties.

1 Set

length expanded size cdr WAVE problems fmt ratio filename
0:25.11 4435916 B --- -- ----- wav 1.0000 kungfu2013-03-01_mk22mk4sbmix_1644_d1t01.wav
8:14.13 87172220 B --- -- ----- wav 1.0000 kungfu2013-03-01_mk22mk4sbmix_1644_d1t02.wav
11:28.03 121370300 B --- -- ----- wav 1.0000 kungfu2013-03-01_mk22mk4sbmix_1644_d1t03.wav
11:54.44 126053132 B --- -- ----- wav 1.0000 kungfu2013-03-01_mk22mk4sbmix_1644_d1t04.wav
8:27.66 89590076 B --- -- ----- wav 1.0000 kungfu2013-03-01_mk22mk4sbmix_1644_d1t05.wav
9:35.25 101488844 B --- -- ----- wav 1.0000 kungfu2013-03-01_mk22mk4sbmix_1644_d1t06.wav
7:34.57 80219708 B --- -- ----- wav 1.0000 kungfu2013-03-01_mk22mk4sbmix_1644_d1t07.wav
7:03.30 74687804 B --- -- ----- wav 1.0000 kungfu2013-03-01_mk22mk4sbmix_1644_d1t08.wav
13:57.59 147785612 B --- -- ----- wav 1.0000 kungfu2013-03-01_mk22mk4sbmix_1644_d1t09.wav
8:44.20 92480684 B --- -- ----- wav 1.0000 kungfu2013-03-01_mk22mk4sbmix_1644_d1t10.wav
8:41.66 92059676 B --- -- ----- wav 1.0000 kungfu2013-03-01_mk22mk4sbmix_1644_d1t11.wav
9:53.54 104732252 B --- -- ----- wav 1.0000 kungfu2013-03-01_mk22mk4sbmix_1644_d1t12.wav
8:08.70 86247884 B --- -- ----- wav 1.0000 kungfu2013-03-01_mk22mk4sbmix_1644_d1t13.wav
1:45.42 18620828 B --- -- ----- wav 1.0000 kungfu2013-03-01_mk22mk4sbmix_1644_d1t14.wav
4:49.51 51099596 B --- -- ----- wav 1.0000 kungfu2013-03-01_mk22mk4sbmix_1644_d1t15.wav
120:45.11 1278044532 B 1.0000 (15 files)

Reviews

There are no reviews yet. Be the first one to write a review.
DOWNLOAD OPTIONS
In Collection
Kung Fu
In Collection
Live Music Archive
Uploaded by
andyjah
on 3/2/2013
Views
196
Favorites
1
PEOPLE ALSO FOUND
Kung Fu
by Kung Fu
33
0
0
Source: Schoeps mk41>Sonosax SX-R4
Kung Fu
by Kung Fu
22
0
0
Source: Schoeps MK4>Sonosax SX-R4
Kung Fu
by Kung Fu
151
0
0
Source: Schoeps MK4>Nbob actives>Sonosax SX-R4(24bit/48khz)
Kung Fu
by Kung Fu
41
0
0
Source: Schoeps MK4>Sonosax SX-R4
Kung Fu
by Kung Fu
160
0
0
Source: Schoeps MK22/MK4>KC5>CMC6>Sonosax SX-R4(24bit/96khz) & SB>SX-R4
Kung Fu
by Kung Fu
83
0
0
Source: Schoeps MK4>KC5>CMC6>Sonosax SX-M2>Apogee Mini-me(aes out,24bit/96khz)>COAX>Edirol R-44
Kung Fu
by Kung Fu
101
0
0
Source: Schoeps MK22/MK41>Sonosax SX-R4 + Soundboard>SX-R4
Kung Fu
by Kung Fu
57
0
0
Source: Schoeps MK41>KC5>CMC6>Sonosax SX-R4(24bit/96khz)
Kung Fu
by Kung Fu
36
0
0
Source: Schoeps Mk41>KC5>CMC6>Sonosax SX-R4(24bit/96khz) & Soundboard
Kung Fu
by Kung Fu
89
0
0
Source: Schoeps MK41/MK22>KC5>CMC6>Sonosax SX-R4(24bit/96khz)